Hsrs.ru

Самоучители онлайн
0 просмотров
Рейтинг статьи
1 звезда2 звезды3 звезды4 звезды5 звезд
Загрузка...

Javascript уровень 1 основы веб программирования

Специалист | JavaScript. Уровень 1. Основы веб — программирования (2014) PCRec

90,0 — 106 kb/s
Размер кадра: 1024×768, 1280×720
Аудиокодек: AAC
Битрейт аудио: 56 kb/s (CBR), 2 Ch, 44100 Hz
Доп. материалы: Есть

Модуль 1. Основы программирования

Как устроен компьютер
Как работают программы
Введение в JavaScript
Обзор базовых типов
Операторы
Выражения и инструкции
Переменные
Приведение типов
Тривиальные типы
Практикум: Использование переменных, типов данных и операторов

Модуль 2. Управляющие конструкции

Циклы
Цикл while
Операторы инкремента и декремента
Цикл for
Цикл do while
Управляющие конструкции if – else if – else
Метки
Прерывание и продолжение цикла
Управляющая конструкция switch
Практикум: Практическое применение управляющих конструкций в JavaScript

Модуль 3. Функции

Понятие функций
Возврат значений
Области видимости
Анонимная функция
Замыкания
Рекурсия
Практикум: Использование функций при процедурном подходе в программировании

Модуль 4. Объекты и массивы

Объектный тип: Объект (Object)
Свойства объекта
Методы объекта
Методы функций
Объектный тип: Массив (Array)
Свойство и методы массива
Встроенный объект Math
Практикум: Использование объектных типов в JavaScript

Модуль 5. Использование объектов JavaScript

Свойства и методы объекта Number
Свойства и методы глобального объекта
Свойствo и методы объекта String
Использование регулярных выражений
Практикум: Использование базовых типов как объектов с регулярными выражениями

Модуль 6. Объектно-ориентированное программирование

Конструкторы объектов
Прототипы
Методы объекта
Объект Date
Объект Error
Практикум: Применение объектно-ориентированного подхода в программировании

Общее
Полное имя : C:[Специалист] JavaScript. Уровень 15.mp4
Формат : MPEG-4
Профиль формата : Base Media / Version 2
Идентификатор кодека : mp42
Размер файла : 76,0 Мбайт
Продолжительность : 1 ч. 10 м.
Режим общего битрейта : Переменный
Общий поток : 150 Кбит/сек

Видео
Идентификатор : 1
Формат : AVC
Формат/Информация : Advanced Video Codec
Профиль формата : High@L3.1
Параметр CABAC формата : Да
Параметр ReFrames формата : 4 кадра
Идентификатор кодека : avc1
Идентификатор кодека/Информация : Advanced Video Coding
Продолжительность : 1 ч. 10 м.
Продолжительность оригинала : 1 ч. 10 м.
Битрейт : 90,0 Кбит/сек
Ширина : 1024 пикселя
Высота : 768 пикселей
Соотношение сторон : 4:3
Режим частоты кадров : Постоянный
Частота кадров : 10,000 кадров/сек
Цветовое пространство : YUV
Субдискретизация насыщенности : 4:2:0
Битовая глубина : 8 бит
Тип развёртки : Прогрессивная
Бит/(Пиксели*Кадры) : 0.011
Размер потока : 45,7 Мбайт (60%)
Размер потока оригинала : 45,7 Мбайт (60%)
Библиотека кодирования : x264 core 125 r2200 999b753
Настройки программы : cabac=1 / ref=3 / deblock=1:0:0 / analyse=0x3:0x113 / me=hex / subme=7 / psy=1 / psy_rd=1.00:0.00 / mixed_ref=1 / me_range=16 / chroma_me=1 / trellis=1 / 8x8dct=1 / cqm=0 / deadzone=21,11 / fast_pskip=1 / chroma_qp_offset=-2 / threads=6 / lookahead_threads=1 / sliced_threads=0 / nr=0 / decimate=1 / interlaced=0 / bluray_compat=0 / constrained_intra=0 / bframes=3 / b_pyramid=2 / b_adapt=1 / b_bias=0 / direct=3 / weightb=1 / open_gop=0 / weightp=2 / keyint=250 / keyint_min=10 / scenecut=40 / intra_refresh=0 / rc_lookahead=40 / rc=2pass / mbtree=1 / bitrate=90 / ratetol=1.0 / qcomp=0.60 / qpmin=0 / qpmax=69 / qpstep=4 / cplxblur=20.0 / qblur=0.5 / ip_ratio=1.40 / aq=1:1.00
Язык : English
mdhd_Duration : 4241900

Читать еще:  Компьютерное программирование для подростков

Аудио
Идентификатор : 2
Формат : AAC
Формат/Информация : Advanced Audio Codec
Профиль формата : LC
Идентификатор кодека : 40
Продолжительность : 1 ч. 10 м.
Вид битрейта : Переменный
Битрейт : 56,0 Кбит/сек
Каналы : 2 канала
Расположение каналов : Front: L R
Частота : 44,1 КГц
Метод сжатия : С потерями
Размер потока : 28,3 Мбайт (37%)
Язык : English

Общее
Полное имя : C:[Специалист] JavaScript. Уровень 13.mp4
Формат : MPEG-4
Профиль формата : Base Media / Version 2
Идентификатор кодека : mp42
Размер файла : 88,9 Мбайт
Продолжительность : 1 ч. 14 м.
Режим общего битрейта : Переменный
Общий поток : 166 Кбит/сек

Видео
Идентификатор : 1
Формат : AVC
Формат/Информация : Advanced Video Codec
Профиль формата : High@L3.1
Параметр CABAC формата : Да
Параметр ReFrames формата : 4 кадра
Идентификатор кодека : avc1
Идентификатор кодека/Информация : Advanced Video Coding
Продолжительность : 1 ч. 14 м.
Продолжительность оригинала : 1 ч. 14 м.
Битрейт : 106 Кбит/сек
Номинальный битрейт : 90,0 Кбит/сек
Ширина : 1280 пикселей
Высота : 720 пикселей
Соотношение сторон : 16:9
Режим частоты кадров : Постоянный
Частота кадров : 10,000 кадров/сек
Цветовое пространство : YUV
Субдискретизация насыщенности : 4:2:0
Битовая глубина : 8 бит
Тип развёртки : Прогрессивная
Бит/(Пиксели*Кадры) : 0.012
Размер потока : 56,8 Мбайт (64%)
Размер потока оригинала : 56,8 Мбайт (64%)
Библиотека кодирования : x264 core 125 r2200 999b753
Настройки программы : cabac=1 / ref=3 / deblock=1:0:0 / analyse=0x3:0x113 / me=hex / subme=7 / psy=1 / psy_rd=1.00:0.00 / mixed_ref=1 / me_range=16 / chroma_me=1 / trellis=1 / 8x8dct=1 / cqm=0 / deadzone=21,11 / fast_pskip=1 / chroma_qp_offset=-2 / threads=6 / lookahead_threads=1 / sliced_threads=0 / nr=0 / decimate=1 / interlaced=0 / bluray_compat=0 / constrained_intra=0 / bframes=3 / b_pyramid=2 / b_adapt=1 / b_bias=0 / direct=3 / weightb=1 / open_gop=0 / weightp=2 / keyint=250 / keyint_min=10 / scenecut=40 / intra_refresh=0 / rc_lookahead=40 / rc=2pass / mbtree=1 / bitrate=90 / ratetol=1.0 / qcomp=0.60 / qpmin=0 / qpmax=69 / qpstep=4 / cplxblur=20.0 / qblur=0.5 / ip_ratio=1.40 / aq=1:1.00
Язык : English
mdhd_Duration : 4492400

Аудио
Идентификатор : 2
Формат : AAC
Формат/Информация : Advanced Audio Codec
Профиль формата : LC
Идентификатор кодека : 40
Продолжительность : 1 ч. 14 м.
Вид битрейта : Переменный
Битрейт : 56,0 Кбит/сек
Каналы : 2 канала
Расположение каналов : Front: L R
Частота : 44,1 КГц
Метод сжатия : С потерями
Размер потока : 30,0 Мбайт (34%)
Язык : English

Читать еще:  Олимпиада школьников по программированию технокубок 2020

JavaScript. Уровень 1. Основы веб — программирования

Описание образовательной программы

Курс знакомит с веб-программированием, с языком JavaScript, его спецификой и особенностями согласно стандарту ECMAScript-262 без привязки к исполняемой среде.
В курсе рассматриваются конструкции JavaScript, определённые в стандарте ECMAScript-262: особенности синтаксиса, объектно-ориентированный подход в программировании на JavaScript и его основной встроенный функционал.
В процессе выполнения лабораторных работ формируются навыки создания базовых алгоритмов.

Успешное окончание обучения по программе курса позволит специалистам:

  • Понимать сущность программирования
  • Понимать специфику веб-программирования
  • Использовать язык JavaScript без привязки к среде исполнения

Цель курса

Формирование базовых знаний и навыков по основам программирования на языке JavaScript

Целевая аудитория

Необходимая подготовка

Успешное окончание курса HTML и CSS. Уровень 1. Создание сайтов на HTML 5 и СSS 3 или эквивалентная подготовка.

Содержание

1. Основы программирования

  • Введение в JavaScript (ECMAScript-262)
  • Обзор базовых типов
  • Операторы
  • Выражения и инструкции
  • Переменные и константы
  • Манипуляции с базовыми типами
  • Тривиальные типы 4

2. Управляющие конструкции

  • Цикл while
  • Операторы инкремента и декремента
  • Цикл for
  • Цикл do while
  • Управляющие конструкции if – else if – else
  • Прерывание и продолжение цикла
  • Управляющая конструкция switch
  • Практикум: Практическое применение управляющих конструкций в JavaScript

3. Функции

  • Понятие функций
  • Декларация функций
  • Аргументы функции
  • Возврат значений
  • Области видимости
  • Функция-выражение
  • Анонимная функция
  • Практикум: Использование функций при процедурном подходе в программировании

4. Объектные типы

  • Объектный тип: Объект (Object)
  • Свойства объекта
  • Методы объекта
  • Объектный тип: Массив (Array)
  • Свойство и методы функций
  • Практикум: Использование объектных типов в JavaScript

5. Объектно-ориентированное программирование

  • Конструкторы объектов
  • Прототипы
  • Классы
  • Практикум: Применение объектно-ориентированного подхода в программировании

6. Дополнительная информация

  • Дополнительная информация по функционалу JavaScript
  • Дополнительные встроенные объекты

Ссылка на основную публикацию
Adblock
detector